<?xml version="1.0" standalone="no"?>
<!DOCTYPE svg PUBLIC "-//W3C//DTD SVG 1.1//EN" "http://www.w3.org/Graphics/SVG/1.1/DTD/svg11.dtd" >
<svg xmlns="http://www.w3.org/2000/svg">
<metadata></metadata>
<defs>
<font id="hind_regularregular" horiz-adv-x="1105" >
<font-face units-per-em="2048" ascent="1638" descent="-410" />
<missing-glyph horiz-adv-x="499" />
<glyph horiz-adv-x="0" />
<glyph horiz-adv-x="682" />
<glyph horiz-adv-x="0" />
<glyph horiz-adv-x="0" />
<glyph unicode="&#xd;" horiz-adv-x="681" />
<glyph unicode=" "  horiz-adv-x="499" />
<glyph unicode="&#x09;" horiz-adv-x="499" />
<glyph unicode="&#xa0;" horiz-adv-x="499" />
<glyph unicode="!" horiz-adv-x="514" d="M133 104q0 49 35 85t86 36t87 -35.5t36 -85.5q0 -51 -35 -85.5t-88 -34.5t-87 34.5t-34 85.5zM178 418v962h158v-962h-158z" />
<glyph unicode="&#x22;" horiz-adv-x="604" d="M90 909v486h146v-486h-146zM371 909v486h143v-486h-143z" />
<glyph unicode="#" horiz-adv-x="1454" d="M109 348v129h249l88 422h-227v131h256l74 350h147l-73 -350h366l74 350h145l-73 -350h211v-131h-238l-88 -422h219v-129h-246l-73 -348h-150l74 348h-367l-74 -348h-145l74 348h-223zM504 477h366l91 422h-367z" />
<glyph unicode="$" horiz-adv-x="1034" d="M109 1018q0 164 111.5 262t283.5 111v213h141v-218q121 -14 209 -57v-174q-125 82 -297 82q-125 0 -198.5 -58.5t-73.5 -152.5q0 -51 19.5 -89t71.5 -73t81.5 -50t109.5 -50q14 -6 23 -10q78 -35 127 -62.5t104.5 -73t82 -109t26.5 -142.5q0 -168 -107.5 -266.5 t-281.5 -112.5v-211h-142v213q-168 16 -284 84v178q150 -113 364 -113q129 0 204 58.5t75 164.5q0 49 -19.5 87t-72 73t-82 50.5t-113.5 50.5q-25 10 -37 16q-74 33 -122 60.5t-100 72.5t-77.5 106.5t-25.5 139.5z" />
<glyph unicode="%" horiz-adv-x="1734" d="M100 1055q0 133 95.5 228t228.5 95t229.5 -95t96.5 -228q0 -135 -96.5 -230.5t-229.5 -95.5t-228.5 95.5t-95.5 230.5zM242 1054.5q0 -75.5 53 -130t129 -54.5t130 54.5t54 130t-54 129t-130 53.5t-129 -53.5t-53 -129zM422 -2l731 1364h158l-736 -1364h-153zM987 309 q0 135 94.5 230.5t229.5 95.5q133 0 228 -96.5t95 -229.5t-95 -228t-228 -95q-135 0 -229.5 95t-94.5 228zM1126 309q0 -76 54.5 -129t130 -53t130 53t54.5 129t-53 130.5t-131 54.5q-76 0 -130.5 -54.5t-54.5 -130.5z" />
<glyph unicode="&#x26;" horiz-adv-x="1439" d="M133 360q0 231 324 355q-96 104 -141.5 185t-45.5 171q0 154 104.5 248t278.5 94t280.5 -101.5t106.5 -252.5q0 -117 -74.5 -211t-250.5 -176l346 -324q49 90 57 201h156q-12 -176 -98 -307l260 -242h-219l-140 129q-166 -145 -428 -145q-231 0 -373.5 105.5 t-142.5 270.5zM301 362q0 -104 96 -166.5t248 -62.5q193 0 320 103q-72 68 -168.5 156.5t-156.5 144t-81 75.5q-131 -49 -194.5 -108.5t-63.5 -141.5zM438 1069q0 -66 38 -130.5t136 -164.5q137 63 199.5 130t62.5 153q0 88 -57 148.5t-166 60.5q-92 0 -152.5 -52.5 t-60.5 -144.5z" />
<glyph unicode="'" horiz-adv-x="325" d="M90 909v486h146v-486h-146z" />
<glyph unicode="(" horiz-adv-x="634" d="M147 535q0 250 84 487.5t230 425.5h178q-322 -434 -322 -922q0 -491 338 -927h-180q-328 418 -328 936z" />
<glyph unicode=")" horiz-adv-x="634" d="M-20 -401q338 436 337.5 927.5t-321.5 921.5h180q145 -188 229 -426t84 -487q0 -516 -329 -936h-180z" />
<glyph unicode="*" horiz-adv-x="835" d="M59 1071l39 127l191 -61q43 -14 80 -47q-18 41 -19 94v196h131v-196q0 -53 -16 -90q31 31 80 45l188 59l41 -125l-188 -61q-33 -13 -74 -13h-14q39 -20 65 -61l115 -160l-105 -78l-116 160q-29 41 -39 80q-10 -41 -39 -82l-117 -158l-106 76l116 162q33 43 64 59h-17 q-39 0 -73 13z" />
<glyph unicode="+" horiz-adv-x="1132" d="M117 623v147h366v387h152v-387h383v-147h-383v-387h-152v387h-366z" />
<glyph unicode="," horiz-adv-x="460" d="M-16 -252l190 459h215l-264 -459h-141z" />
<glyph unicode="-" horiz-adv-x="712" d="M117 479v142h479v-142h-479z" />
<glyph unicode="." horiz-adv-x="339" d="M49 104.5q0 51.5 35 86t86 34.5t86 -34.5t35 -86t-35 -86t-86 -34.5t-86 34.5t-35 86z" />
<glyph unicode="/" horiz-adv-x="825" d="M-18 -209l745 1657h166l-748 -1657h-163z" />
<glyph unicode="0" horiz-adv-x="1114" d="M88 674q0 315 128 498.5t337 183.5q217 0 345 -183.5t128 -498.5q0 -313 -123 -501.5t-350 -188.5q-211 0 -338 188.5t-127 501.5zM254 674q0 -252 86 -394.5t213 -142.5q141 0 224 139.5t83 397.5q0 256 -87 392t-220 136q-123 0 -211 -138t-88 -390z" />
<glyph unicode="1" horiz-adv-x="661" d="M37 973v174l317 192h152v-1339h-160v1163z" />
<glyph unicode="2" horiz-adv-x="1011" d="M78 0v137q635 479 635 799q0 127 -74 195.5t-199 68.5q-162 0 -319 -121v162q145 113 334 113q180 0 303 -104.5t123 -297.5q0 -362 -580 -811h623v-141h-846z" />
<glyph unicode="3" horiz-adv-x="954" d="M78 55v162q152 -80 330 -80q131 0 203.5 67.5t72.5 176t-81 167t-232 58.5h-86v142h86q115 0 193.5 64.5t78.5 173t-67.5 163.5t-186.5 55q-141 0 -270 -84v158q119 76 274 76q199 0 308.5 -101.5t109.5 -251.5q0 -109 -54.5 -194.5t-160.5 -128.5q117 -27 185.5 -108 t68.5 -201q0 -164 -114.5 -272.5t-323.5 -108.5q-193 0 -334 67z" />
<glyph unicode="4" d="M86 326v141l510 872h262v-872h199v-141h-199v-326h-160v326h-612zM250 467h448v776z" />
<glyph unicode="5" horiz-adv-x="1042" d="M121 53v160q131 -78 317 -78q344 0 344 289q0 117 -79.5 181.5t-206.5 64.5q-150 0 -310 -72v741h672v-141h-512v-401q92 20 160 20q205 0 324.5 -108.5t119.5 -290.5q0 -199 -130 -316.5t-355 -117.5q-203 0 -344 69z" />
<glyph unicode="6" horiz-adv-x="1077" d="M106 606q0 334 164 553t451 219q92 1 188 -30v-158q-88 39 -186 39q-193 0 -307.5 -144.5t-141.5 -363.5q135 141 334 141q184 0 290 -116.5t106 -309.5q0 -205 -116 -332t-306 -127q-229 0 -352.5 174.5t-123.5 454.5zM268 567q8 -217 93.5 -328.5t220.5 -111.5 q117 0 185.5 86t68.5 225q0 127 -69 203t-179 76q-184 0 -320 -150z" />
<glyph unicode="7" horiz-adv-x="923" d="M25 1198v141h874v-141l-555 -1198h-172l555 1198h-702z" />
<glyph unicode="8" horiz-adv-x="1097" d="M104 338q0 121 64.5 206t177.5 124q-219 84 -219 309q0 178 123 277.5t291 99.5q174 0 297 -97.5t123 -281.5q0 -104 -58 -183t-158 -120q248 -76 248 -324q0 -166 -129 -265t-323 -99q-186 0 -311.5 96t-125.5 258zM268 346q0 -94 72 -156.5t203 -62.5q137 0 210.5 67.5 t73.5 167.5q0 98 -71.5 166t-212.5 66q-137 -2 -206 -72.5t-69 -175.5zM291 979q0 -117 72.5 -176.5t185.5 -59.5q109 0 178.5 62.5t69.5 175.5q0 98 -65.5 163.5t-190.5 65.5q-115 0 -182.5 -67.5t-67.5 -163.5z" />
<glyph unicode="9" horiz-adv-x="1032" d="M74 915q0 190 112.5 315.5t307.5 125.5q225 0 338.5 -168t113.5 -424q0 -365 -146.5 -572.5t-437.5 -207.5q-118 0 -231 39v159q106 -47 225 -47q371 0 422 465q-102 -121 -303 -121q-164 0 -282.5 120t-118.5 316zM242 915q0 -141 73.5 -216.5t200.5 -75.5 q168 0 270 131v10q0 195 -68.5 318.5t-219.5 123.5q-117 0 -186.5 -77.5t-69.5 -213.5z" />
<glyph unicode=":" horiz-adv-x="481" d="M121 117q0 51 33.5 86t85 35t86 -35t34.5 -86t-34.5 -85t-86 -34t-85 34t-33.5 85zM121 778q0 49 33.5 84t85 35t86 -35t34.5 -84q0 -51 -34.5 -85t-86 -34t-85 34t-33.5 85z" />
<glyph unicode=";" horiz-adv-x="460" d="M-16 -252l190 459h215l-264 -459h-141zM143 776q0 49 34 84t85 35t86 -35t35 -84q0 -51 -35 -85t-86 -34t-85 34t-34 85z" />
<glyph unicode="&#x3c;" horiz-adv-x="1079" d="M117 621v155l862 385v-166q-541 -223 -692 -295q70 -35 242.5 -109.5t310.5 -131.5l139 -58v-168z" />
<glyph unicode="=" horiz-adv-x="1132" d="M117 420v141h901v-141h-901zM117 834v139h901v-139h-901z" />
<glyph unicode="&#x3e;" horiz-adv-x="1079" d="M100 233v168q537 221 691 299q-68 33 -240 107t-311 131l-140 57v166l863 -385v-155z" />
<glyph unicode="?" horiz-adv-x="925" d="M92 1149v164q133 84 327.5 84t311.5 -99.5t117 -275.5q0 -174 -121 -270.5t-281 -110.5l-2 -223h-155l-2 340q188 0 290.5 64.5t102.5 193.5q0 104 -67.5 169.5t-200.5 65.5q-158 0 -320 -102zM244 104q0 49 34.5 85t83.5 36q51 0 88 -35.5t37 -85.5q0 -51 -35.5 -85.5 t-89.5 -34.5q-51 0 -84.5 34.5t-33.5 85.5z" />
<glyph unicode="@" horiz-adv-x="1853" d="M123 401q0 367 258 610.5t625 243.5q315 0 533 -196.5t218 -517.5q0 -236 -110.5 -367t-251.5 -131q-188 0 -240 176q-109 -182 -303 -182q-152 0 -239 107.5t-87 269.5q0 184 114 310t282 126q164 0 241 -131q0 16 3 56t5 65h136l-31 -283q-8 -109 -8 -176 q0 -207 135 -207q90 0 150.5 99.5t60.5 256.5q0 279 -173 433.5t-440 154.5q-295 0 -508.5 -205.5t-213.5 -511.5q0 -291 166.5 -448.5t406.5 -157.5q205 0 365 88l-9 -157q-137 -70 -360 -70q-334 0 -529.5 210t-195.5 535zM680 406q0 -106 55.5 -171t143.5 -65 q82 0 154.5 57.5t105.5 159.5q4 74 8 113q-33 215 -221 215q-106 0 -176 -90t-70 -219z" />
<glyph unicode="A" horiz-adv-x="1327" d="M72 0l481 1380h229l473 -1380h-178l-121 362h-583l-123 -362h-178zM420 504h489l-26 80l-215 663q-25 -88 -222 -665z" />
<glyph unicode="B" horiz-adv-x="1169" d="M158 0v1380h415q213 0 341 -98t128 -264q0 -119 -66.5 -206t-170.5 -110q115 -18 195.5 -103t80.5 -230q0 -166 -109.5 -267.5t-309.5 -101.5h-504zM324 141h313q131 0 201.5 60.5t70.5 177.5t-78.5 182.5t-224.5 65.5h-282v-486zM324 768h221q166 0 245.5 69.5 t79.5 180.5q0 96 -74.5 158.5t-222.5 62.5h-249v-471z" />
<glyph unicode="C" horiz-adv-x="1232" d="M98 696q0 311 198 507t497 196q215 0 350 -74v-170q-90 47 -162 67.5t-188 20.5q-223 0 -372 -151.5t-149 -395.5q0 -254 147.5 -405.5t391.5 -151.5q197 0 336 105v-174q-127 -86 -348 -86q-311 0 -506 191.5t-195 520.5z" />
<glyph unicode="D" horiz-adv-x="1353" d="M158 0v1380h409q305 0 501 -189.5t196 -490.5q0 -299 -181.5 -499.5t-507.5 -200.5h-417zM326 145h247q256 0 387.5 159t131.5 396q0 225 -146.5 379t-380.5 154h-239v-1088z" />
<glyph unicode="E" horiz-adv-x="1026" d="M158 0v1380h760v-145h-594v-473h524v-146h-524v-471h604v-145h-770z" />
<glyph unicode="F" horiz-adv-x="1001" d="M158 0v1380h757v-145h-591v-490h520v-145h-520v-600h-166z" />
<glyph unicode="G" horiz-adv-x="1372" d="M98 692q0 313 193.5 513t488.5 200q244 0 404 -94v-178q-166 110 -385 110h-4q-231 0 -377 -150.5t-146 -400.5q0 -256 143.5 -402.5t395.5 -146.5q139 0 258 56v430h-303v145h469v-659h-2l2 -6q-166 -125 -428 -125q-319 0 -514 189t-195 519z" />
<glyph unicode="H" horiz-adv-x="1316" d="M158 0v1380h166v-606h669v606h166v-1380h-166v625h-669v-625h-166z" />
<glyph unicode="I" horiz-adv-x="505" d="M170 0v1380h166v-1380h-166z" />
<glyph unicode="J" horiz-adv-x="733" d="M61 45v160q82 -53 172 -53q178 0 179 188v1040h166v-1026q0 -354 -322 -354q-115 0 -195 45z" />
<glyph unicode="K" horiz-adv-x="1173" d="M158 0v1380h166v-1380h-166zM356 682l527 698h204l-526 -698l555 -682h-215z" />
<glyph unicode="L" horiz-adv-x="976" d="M158 0v1380h166v-1230h587v-150h-753z" />
<glyph unicode="M" horiz-adv-x="1755" d="M143 0l101 1380h211l182 -503l221 -644q119 336 234 644l190 503h211l121 -1380h-166l-47 545l-49 612q-109 -303 -224 -612l-192 -514h-158l-182 514l-209 600q0 -80 -39 -600l-39 -545h-166z" />
<glyph unicode="N" horiz-adv-x="1378" d="M158 0v1380h209l346 -581l350 -598q-8 199 -8 596v583h166v-1380h-209l-346 578q-104 174 -192.5 324.5t-125.5 215.5l-35 64q10 -213 11 -600v-582h-166z" />
<glyph unicode="O" horiz-adv-x="1433" d="M98 696q0 326 167 518.5t452 192.5q291 0 455.5 -191.5t164.5 -519.5q0 -326 -166.5 -519t-451.5 -193q-281 0 -451 194t-170 518zM272 696q0 -256 122 -405.5t325 -149.5q211 0 326.5 147.5t115.5 407.5t-116.5 407.5t-327.5 147.5q-209 0 -327 -148.5t-118 -406.5z" />
<glyph unicode="P" horiz-adv-x="1116" d="M158 0v1380h362q240 0 378 -123.5t138 -320.5q0 -184 -137 -306t-362 -122h-213v-508h-166zM324 649h223q150 2 235.5 84t85.5 203q0 135 -89 218t-249 85h-206v-590z" />
<glyph unicode="Q" horiz-adv-x="1452" d="M98 696q0 326 167 518.5t452 192.5q291 0 455.5 -191.5t164.5 -519.5q0 -238 -91 -408.5t-257 -248.5l410 -254l-180 -76l-410 281q-43 -6 -90 -6q-281 0 -451 194.5t-170 517.5zM272 696q0 -256 122 -405.5t325 -149.5q211 0 326.5 147.5t115.5 407.5t-116.5 407.5 t-327.5 147.5q-209 0 -327 -148.5t-118 -406.5z" />
<glyph unicode="R" horiz-adv-x="1122" d="M158 0v1380h346q240 0 363.5 -112.5t123.5 -311.5q-4 -143 -75.5 -243.5t-202.5 -141.5l362 -571h-198l-338 545h-17h-198v-545h-166zM324 686h208q141 0 216 77t75 198q0 276 -309 276h-190v-551z" />
<glyph unicode="S" horiz-adv-x="1073" d="M135 1018q0 176 126 275.5t317 99.5q178 -1 303 -64v-174q-125 82 -299 82q-125 0 -199 -58.5t-74 -152.5q0 -49 19.5 -88t68.5 -73t84 -51t109 -50q70 -31 106.5 -48.5t95 -55t88 -73.5t53 -94.5t23.5 -125.5q0 -182 -124.5 -281.5t-321.5 -99.5q-217 0 -369 88v178 q150 -113 365 -113q129 0 202.5 57.5t73.5 165.5q0 45 -17 81t-57 66t-76 49.5t-97 47.5q-12 6 -37 17q-88 39 -134.5 63.5t-108.5 72.5t-91 111.5t-29 147.5z" />
<glyph unicode="T" horiz-adv-x="987" d="M37 1235v145h911v-145h-373v-1235h-165v1235h-373z" />
<glyph unicode="U" horiz-adv-x="1320" d="M156 508v872h166v-870q0 -190 91 -280.5t244 -90.5q342 0 342 381v860h166v-856q0 -266 -134 -403t-374 -137q-236 0 -368.5 134t-132.5 390z" />
<glyph unicode="V" horiz-adv-x="1304" d="M74 1380h178l180 -546l215 -684q80 258 221 684l185 546h178l-481 -1380h-209z" />
<glyph unicode="W" horiz-adv-x="1921" d="M74 1380h174l129 -512l170 -694q115 420 194 694l144 492h166l151 -492l209 -700q94 453 152 698l116 514h168l-323 -1380h-213l-133 436l-207 690q-63 -242 -197 -690l-129 -436h-211z" />
<glyph unicode="X" horiz-adv-x="1255" d="M80 0l444 696l-420 684h195l317 -534q8 16 162 273t156 261h196l-417 -684l463 -696h-195l-360 555q-2 -4 -168 -270.5t-177 -284.5h-196z" />
<glyph unicode="Y" horiz-adv-x="1214" d="M53 1380h193l104 -202q106 -205 170 -334t74 -156l10 -24q18 51 260 514l105 202h192l-473 -866v-514h-166v512z" />
<glyph unicode="Z" horiz-adv-x="1165" d="M106 0v137l730 1102h-719v141h911v-135l-729 -1104h760v-141h-953z" />
<glyph unicode="[" horiz-adv-x="634" d="M158 -375v1823h471v-143h-312v-1532h312v-148h-471z" />
<glyph unicode="\" horiz-adv-x="823" d="M-68 1448h166l746 -1659h-164z" />
<glyph unicode="]" horiz-adv-x="634" d="M6 -227h311v1532h-311v143h471v-1823h-471v148z" />
<glyph unicode="^" horiz-adv-x="944" d="M92 680l291 537h186l283 -537h-162l-215 426l-221 -426h-162z" />
<glyph unicode="_" horiz-adv-x="1148" d="M57 -63h1035v-142h-1035v142z" />
<glyph unicode="`" horiz-adv-x="862" d="M236 1634h194l201 -319h-142z" />
<glyph unicode="a" horiz-adv-x="1007" d="M96 293q0 150 114 232.5t310 82.5h189v54q0 123 -55.5 185t-186.5 62q-166 0 -295 -88v162q117 72 307 72q391 0 391 -398v-657h-159v123q-80 -133 -291 -133q-145 0 -234.5 86t-89.5 217zM266 299q0 -78 51.5 -126t149.5 -48q111 0 176.5 62.5t65.5 158.5v133h-181 q-131 0 -196.5 -51t-65.5 -129z" />
<glyph unicode="b" horiz-adv-x="1167" d="M156 0v1448h161v-565q113 172 316 172q197 0 321.5 -150.5t124.5 -394.5q0 -219 -117.5 -372.5t-324.5 -153.5q-209 0 -320 170v-154h-161zM317 526q0 -207 89.5 -301t216.5 -94q125 0 206.5 104.5t81.5 272.5q0 193 -85 296t-214 103q-111 0 -203 -92t-92 -289z" />
<glyph unicode="c" horiz-adv-x="964" d="M88 516q0 221 144.5 381t394.5 160q133 0 237 -58v-153q-94 63 -221 63q-176 0 -281.5 -113.5t-105.5 -281.5q2 -168 102.5 -279.5t284.5 -111.5q119 0 221 67v-153q-98 -59 -241 -60q-246 0 -390.5 157t-144.5 382z" />
<glyph unicode="d" horiz-adv-x="1161" d="M88 510q0 244 125 394.5t322 150.5q203 0 315 -174v567h162v-1448h-162v154q-111 -170 -320 -170q-207 0 -324.5 153.5t-117.5 372.5zM256 508q0 -168 82 -272.5t207 -104.5q127 0 216 94t89 301q0 197 -92 289t-203 92q-129 0 -214 -103.5t-85 -295.5z" />
<glyph unicode="e" horiz-adv-x="1069" d="M88 516q0 248 129 391.5t332 143.5q195 0 309.5 -125t114.5 -355q0 -66 -10 -120h-709q18 -154 116.5 -236t258.5 -82q174 0 278 72v-152q-121 -63 -295 -63q-236 0 -380 144.5t-144 381.5zM254 586h557v41q0 129 -69.5 205.5t-192.5 76.5q-117 0 -199 -84t-96 -239z" />
<glyph unicode="f" horiz-adv-x="673" d="M61 907v131h179v97q0 152 80.5 239.5t224.5 87.5q49 0 100 -14v-148q-49 16 -94 17q-66 0 -108 -45t-42 -139v-95h230v-131h-230v-907h-161v907h-179z" />
<glyph unicode="g" horiz-adv-x="1124" d="M90 522q0 231 117 381t305 150q213 0 313 -187v172h162v-954q0 -238 -131 -357.5t-338 -119.5q-188 0 -321 63v162q131 -76 307 -76q150 0 235.5 80t85.5 250v117q-102 -176 -305 -176q-178 0 -304 131t-126 364zM258 526q0 -174 86 -265t195 -91q113 0 199.5 87 t86.5 259q0 199 -84 295t-194 96q-133 0 -211 -105.5t-78 -275.5z" />
<glyph unicode="h" d="M150 0v1448h159v-590q92 195 328 195q150 0 241 -92.5t91 -249.5v-711h-162v672q0 113 -58.5 174t-152.5 61q-115 0 -201 -88t-86 -252v-567h-159z" />
<glyph unicode="i" horiz-adv-x="477" d="M133 1364q0 45 30 75.5t75 30.5t75.5 -30.5t30.5 -75.5t-30.5 -74.5t-75.5 -29.5t-75 29.5t-30 74.5zM158 0v1038h161v-1038h-161z" />
<glyph unicode="j" horiz-adv-x="466" d="M-94 -225q78 -33 139 -33q115 0 115 149v1147h159v-1151q0 -135 -70.5 -210.5t-195.5 -75.5h-4q-65 0 -143 30v144zM133 1364q0 45 30 75.5t75 30.5t75.5 -30.5t30.5 -75.5t-30.5 -74.5t-75.5 -29.5t-75 29.5t-30 74.5z" />
<glyph unicode="k" horiz-adv-x="983" d="M150 0v1440h159v-1440h-159zM330 545l407 493h193l-410 -493l422 -545h-194z" />
<glyph unicode="l" horiz-adv-x="477" d="M158 0v1448h161v-1448h-161z" />
<glyph unicode="m" horiz-adv-x="1675" d="M150 0v1038h159v-168q86 182 293 183q240 0 303 -203q45 98 126 150.5t181 52.5q162 0 244 -92.5t82 -247.5v-713h-162v672q0 235 -196 235h-2q-98 0 -176 -89t-78 -251v-567h-162v672q0 235 -197 235h-2q-98 0 -176 -89t-78 -251v-567h-159z" />
<glyph unicode="n" d="M150 0v1038h159v-180q92 195 328 195q152 0 242 -92.5t90 -245.5v-715h-162v672q0 115 -58.5 175t-152.5 60q-117 0 -202 -90t-85 -250v-567h-159z" />
<glyph unicode="o" horiz-adv-x="1150" d="M88 512q0 231 134 386t349 155q236 0 364 -151.5t128 -385.5q0 -231 -131.5 -382.5t-360.5 -151.5q-223 0 -353 150.5t-130 379.5zM256 514q0 -162 86 -275.5t229 -113.5q156 0 240 111.5t84 277.5q0 172 -80 283.5t-244 111.5q-147 0 -231 -114.5t-84 -280.5z" />
<glyph unicode="p" horiz-adv-x="1161" d="M150 -403v1441h159v-157q109 174 322 174q207 0 324.5 -150.5t117.5 -376.5q0 -240 -124 -392t-322 -152q-205 0 -318 174v-561h-159zM309 518q0 -199 92 -293t205 -94q131 0 215 103.5t84 293.5q0 170 -82 274.5t-206.5 104.5t-216 -91t-91.5 -298z" />
<glyph unicode="q" horiz-adv-x="1161" d="M88 528q0 225 119 376t325.5 151t317.5 -170v153h162v-1441h-162v559q-113 -172 -315 -172q-199 0 -323 152.5t-124 391.5zM256 528q0 -190 84 -293.5t215 -103.5q113 0 204 93t91 294q0 207 -90 298t-215 91t-207 -104.5t-82 -274.5z" />
<glyph unicode="r" horiz-adv-x="667" d="M147 0l3 1038h159v-182q82 193 283 193q37 0 57 -5v-159q-43 14 -88 14q-109 0 -180.5 -100.5t-71.5 -231.5v-567h-162z" />
<glyph unicode="s" horiz-adv-x="843" d="M115 766q0 129 97 206t243 77q162 0 260 -45v-154q-94 57 -258 57q-82 0 -130 -38t-48 -97q0 -37 14 -64.5t56 -54t61.5 -36t85.5 -37.5q131 -53 204.5 -121t73.5 -183q0 -133 -93 -210.5t-255 -77.5q-188 0 -305 63v158q137 -82 295 -82q94 0 143 37t49 100 q0 74 -54 115t-181 92q-117 45 -187.5 112.5t-70.5 182.5z" />
<glyph unicode="t" horiz-adv-x="755" d="M45 907v131h166v258h162v-258h286v-131h-286v-608q0 -166 155 -166q80 0 142 47v-153q-68 -37 -152 -37q-307 0 -307 313v604h-166z" />
<glyph unicode="u" d="M137 324v714h162v-673q0 -113 57.5 -172.5t155.5 -59.5q129 0 206 90t77 244v571h161v-1038h-161v180q-82 -192 -323 -192h-3q-154 0 -243 91t-89 245z" />
<glyph unicode="v" horiz-adv-x="1034" d="M51 1038h168l143 -438l152 -473q18 88 154 473l147 438h168l-371 -1038h-198z" />
<glyph unicode="w" horiz-adv-x="1622" d="M51 1038h172l101 -344q53 -180 89 -314t46 -179l10 -43q31 131 149 538l99 342h172l100 -342l154 -540q29 121 157 540l105 342h166l-328 -1038h-199l-98 340l-143 518q-31 -131 -139 -518l-95 -340h-198z" />
<glyph unicode="x" horiz-adv-x="978" d="M51 0l348 532l-327 508h186l236 -389l237 389h184l-335 -510l348 -530h-187l-252 410l-260 -410h-178z" />
<glyph unicode="y" horiz-adv-x="1009" d="M16 1038h183l135 -342l182 -471q16 53 164 471l121 342h174l-375 -1011q-80 -211 -189.5 -297t-250.5 -86q-53 0 -86 10v145q31 -8 69 -8q207 0 293 236z" />
<glyph unicode="z" horiz-adv-x="927" d="M90 0v127l526 768h-505v143h698v-118l-533 -775h562v-145h-748z" />
<glyph unicode="{" horiz-adv-x="684" d="M98 459v157q37 0 60 5q88 12 134 78.5t46 160.5q0 45 -21.5 141.5t-21.5 151.5q0 139 78 223t188 84q43 0 96 -16v-160q-35 18 -67 19q-63 0 -96 -43t-33 -109q0 -53 21.5 -157.5t21.5 -164.5q0 -115 -64.5 -194.5t-185.5 -97.5q121 -18 185.5 -99.5t64.5 -193.5 q0 -61 -21.5 -166t-21.5 -158q0 -66 32.5 -108.5t96.5 -42.5q33 0 67 18v-158q-43 -16 -96 -16q-113 0 -189.5 83t-76.5 222q0 55 21.5 151.5t21.5 141.5q0 207 -180 244q-18 4 -60 4z" />
<glyph unicode="|" horiz-adv-x="466" d="M160 -397v1820h147v-1820h-147z" />
<glyph unicode="}" horiz-adv-x="684" d="M27 -213q35 -18 69 -18q61 0 94 43t33 108q0 53 -20.5 157.5t-20.5 166.5q0 113 64.5 193.5t183.5 99.5q-119 18 -183.5 98t-64.5 194q0 61 20.5 165t20.5 157q0 66 -32.5 109t-94.5 43q-34 -1 -69 -19v160q53 16 96 16q111 0 188.5 -84t77.5 -223q0 -55 -21.5 -151.5 t-21.5 -141.5q0 -94 46 -160.5t134 -78.5q23 -4 60 -5v-157q-41 0 -60 -4q-92 -18 -136 -84t-44 -160q0 -45 21.5 -141.5t21.5 -151.5q0 -139 -76.5 -222t-189.5 -83q-53 0 -96 16v158z" />
<glyph unicode="~" horiz-adv-x="1226" d="M74 502q139 195 319 194q111 0 249 -75.5t204 -75.5q114 0 186 123l121 -86q-119 -184 -293 -185q-96 0 -240.5 76t-201.5 76q-137 0 -236 -141z" />
<glyph unicode="&#xa1;" horiz-adv-x="514" d="M133 938q0 53 34 87t87 34t88 -35t35 -86q0 -49 -36 -85t-87 -36t-86 36t-35 85zM178 -338v963h158v-963h-158z" />
<glyph unicode="&#xa2;" horiz-adv-x="925" d="M94 516q0 199 120 349.5t329 178.5v216h141v-211q86 -10 160 -45v-152q-96 51 -193 51q-178 0 -283.5 -111.5t-107.5 -277.5q2 -166 103.5 -274.5t287.5 -108.5q106 0 193 49v-151q-68 -33 -160 -43v-213h-141v217q-211 27 -330 174t-119 352z" />
<glyph unicode="&#xa3;" horiz-adv-x="1069" d="M125 0v135q117 55 160 137t43 238q0 27 -4 88h-189v129h174q-16 139 -16 193q0 207 109.5 318.5t308.5 111.5q119 0 221 -52v-159q-98 57 -205 57q-268 0 -268 -268q0 -61 16 -201h369v-129h-357q4 -61 5 -86q0 -158 -42 -240t-120 -131h659v-141h-864z" />
<glyph unicode="&#xa4;" horiz-adv-x="1112" d="M70 256l120 119q-77 108 -77 258q0 147 82 262l-125 125l104 100l123 -125q117 84 266 84q143 0 258 -75l119 116l102 -100l-118 -119q78 -115 77 -256q0 -145 -86 -264l127 -125l-102 -100l-127 125q-115 -80 -262 -80q-150 0 -258 73l-119 -118zM252 641 q0 -133 86 -220t219 -87q131 0 217 86t86 219q0 131 -86 219t-217 88q-133 0 -219 -87t-86 -218z" />
<glyph unicode="&#xa5;" horiz-adv-x="1198" d="M68 1339h188l338 -659l342 659h188l-325 -598h243v-120h-309l-55 -101v-80h364v-118h-364v-322h-168v322h-363v118h363v78l-55 103h-308v120h242z" />
<glyph unicode="&#xa6;" horiz-adv-x="466" d="M160 313h147v-678h-147v678zM160 752v678h147v-678h-147z" />
<glyph unicode="&#xa7;" horiz-adv-x="1048" d="M104 612q0 135 86 232q-78 78 -77 196q0 170 123.5 261.5t314.5 91.5q178 -1 303 -64v-174q-125 82 -297 82q-129 0 -200.5 -49t-71.5 -141q0 -41 13 -70t48 -53.5t60.5 -38t88 -39t95.5 -39.5q68 -31 105.5 -50.5t91 -56t81 -72.5t49 -91.5t21.5 -120.5q0 -145 -88 -244 q84 -88 84 -217q0 -178 -124 -274.5t-318 -96.5q-219 0 -371 90v179q152 -115 364 -115q133 0 206 55t73 160q0 84 -61.5 135t-206.5 117q-70 31 -96.5 43t-86 44t-86 58.5t-61.5 66.5t-48.5 88t-13.5 107zM270 614q0 -51 19.5 -90t68 -72.5t86 -53t115.5 -52.5 q123 -55 166 -78q51 61 51 148q0 88 -63.5 140t-196.5 116q-27 12 -93.5 39.5t-98.5 44.5q-54 -60 -54 -142z" />
<glyph unicode="&#xa8;" horiz-adv-x="862" d="M119 1481q0 45 30.5 74.5t75.5 29.5t75 -29.5t30 -74.5t-30 -76t-75 -31t-75.5 31t-30.5 76zM532 1481q0 45 30 74.5t75 29.5t75.5 -29.5t30.5 -74.5t-30.5 -76t-75.5 -31t-75 31t-30 76z" />
<glyph unicode="&#xa9;" horiz-adv-x="1589" d="M88 688q0 291 208 500t498.5 209t498.5 -209t208 -500q0 -289 -208 -497.5t-498.5 -208.5t-498.5 208.5t-208 497.5zM225 688.5q0 -237.5 168 -404.5t403.5 -167t403.5 167t168 404.5t-168 405.5t-403.5 168t-403.5 -168t-168 -405.5zM457 686q2 158 105.5 272.5 t281.5 114.5q96 0 170 -41v-133q-72 47 -160 47q-113 0 -183.5 -72.5t-70.5 -189.5q2 -111 71.5 -184.5t182.5 -73.5q94 0 160 51v-133q-66 -43 -172 -43q-176 0 -280.5 111.5t-104.5 273.5z" />
<glyph unicode="&#xaa;" horiz-adv-x="716" d="M4 1049q0 127 96.5 197.5t264.5 70.5h153v43q0 104 -46 157.5t-157 53.5q-134 0 -247 -76v133q109 63 258 64q172 0 250.5 -85t78.5 -251v-553h-133v110q-90 -119 -243 -118q-123 0 -199 68.5t-76 185.5zM145 1053q0 -63 44 -102.5t126 -39.5q88 0 145.5 51.5t57.5 120.5 v121h-129q-244 0 -244 -151z" />
<glyph unicode="&#xab;" horiz-adv-x="983" d="M55 518l307 332h179l-299 -332l299 -332h-179zM436 518l307 332h179l-299 -332l299 -332h-179z" />
<glyph unicode="&#xac;" horiz-adv-x="1124" d="M51 700v146h998v-518h-150v372h-848z" />
<glyph unicode="&#xad;" horiz-adv-x="712" d="M117 479v142h479v-142h-479z" />
<glyph unicode="&#xae;" horiz-adv-x="919" d="M20 1173.5q0 190.5 124 315.5t317 125q190 0 314 -125t124 -315.5t-124 -313.5t-314 -123q-193 0 -317 123t-124 313.5zM121 1173.5q0 -153.5 93 -248t249 -94.5q154 0 248 95.5t94 247.5q0 154 -94.5 249t-247.5 95q-156 0 -249 -95.5t-93 -249zM326 969v438h125 q168 0 167 -139q0 -88 -73 -123l110 -176h-106l-94 159h-39v-159h-90zM416 1202h51q59 0 59 65.5t-65 65.5h-45v-131z" />
<glyph unicode="&#xaf;" horiz-adv-x="862" d="M141 1419v115h578v-115h-578z" />
<glyph unicode="&#xb0;" horiz-adv-x="727" d="M61 1085q0 129 87.5 214t218.5 85q129 0 214 -81.5t85 -210.5t-88.5 -215t-217.5 -86q-131 0 -215 81.5t-84 212.5zM190 1087.5q0 -73.5 51.5 -125t125 -51.5t121 51.5t47.5 125t-50.5 126t-124 52.5t-122 -52.5t-48.5 -126z" />
<glyph unicode="&#xb1;" horiz-adv-x="1132" d="M117 61v144h901v-144h-901zM117 678v141h366v346h152v-346h383v-141h-383v-346h-152v346h-366z" />
<glyph unicode="&#xb2;" horiz-adv-x="747" d="M96 803v100q406 305 406 510q0 80 -44 119t-114 39q-111 0 -219 -88v141q111 68 223 68q121 0 205 -71t84 -198q0 -121 -98.5 -254t-259.5 -254h389v-112h-572z" />
<glyph unicode="&#xb3;" horiz-adv-x="665" d="M72 846v123q102 -57 227 -58q76 0 119 37t43 99q0 68 -52.5 106.5t-148.5 38.5h-49v113h49q74 0 124 36.5t50 102.5q0 129 -149 129q-90 0 -189 -64v129q90 53 193 54q135 0 207.5 -69t72.5 -169q0 -80 -43 -133t-118 -70q76 -6 131 -65.5t55 -145.5q0 -109 -76 -177 t-213 -68q-135 0 -233 51z" />
<glyph unicode="&#xb4;" horiz-adv-x="862" d="M236 1315l202 319h193l-254 -319h-141z" />
<glyph unicode="&#xb5;" horiz-adv-x="1118" d="M150 -367v1405h159v-673q0 -109 75 -170.5t175 -61.5q115 0 181.5 89t66.5 245v571h162v-1038h-162v158q-74 -170 -272 -170q-135 0 -226 78v-433h-159z" />
<glyph unicode="&#xb6;" horiz-adv-x="1116" d="M53 1034q0 139 103.5 242.5t292.5 103.5h137v-1683h-146v1001q-184 0 -285.5 96.5t-101.5 239.5zM821 -303v1683h146v-1683h-146z" />
<glyph unicode="&#xb7;" horiz-adv-x="475" d="M117 653.5q0 51.5 34.5 86t86 34.5t86 -34.5t34.5 -86t-34.5 -86.5t-86 -35t-86 35t-34.5 86.5z" />
<glyph unicode="&#xb8;" horiz-adv-x="862" d="M276 -397q172 12 173 145q0 70 -48 148h146q37 -52 37 -146q0 -111 -79 -186.5t-229 -79.5v119z" />
<glyph unicode="&#xb9;" horiz-adv-x="512" d="M20 1413v133l240 137h107v-880h-127v731z" />
<glyph unicode="&#xba;" horiz-adv-x="770" d="M-12 1239q0 195 108.5 326t284.5 131q193 0 296 -128t103 -325q0 -199 -105.5 -325.5t-293.5 -126.5q-182 0 -287.5 126.5t-105.5 321.5zM129 1241q0 -139 68.5 -235.5t185.5 -96.5q125 0 190.5 94.5t65.5 237.5q0 145 -61.5 239.5t-196.5 94.5q-119 0 -185.5 -97.5 t-66.5 -236.5z" />
<glyph unicode="&#xbb;" horiz-adv-x="987" d="M59 186l301 332l-301 332h179l309 -332l-309 -332h-179zM440 186l301 332l-301 332h178l310 -332l-310 -332h-178z" />
<glyph unicode="&#xbf;" horiz-adv-x="925" d="M92 20q0 174 121 270.5t281 110.5l2 224h155l2 -340q-188 0 -290.5 -64.5t-102.5 -193.5q0 -104 67.5 -169t202.5 -65q160 1 318 101v-164q-133 -84 -327.5 -84t-311.5 99t-117 275zM453 940q0 51 35.5 85t89.5 34q51 0 84.5 -34t33.5 -85t-33.5 -87t-85 -36t-88 36 t-36.5 87z" />
<glyph unicode="&#xc0;" horiz-adv-x="1327" d="M72 0l481 1380h229l473 -1380h-178l-121 362h-583l-123 -362h-178zM330 1808h194l201 -319h-141zM420 504h489l-26 80l-215 663q-25 -88 -222 -665z" />
<glyph unicode="&#xc1;" horiz-adv-x="1327" d="M72 0l481 1380h229l473 -1380h-178l-121 362h-583l-123 -362h-178zM420 504h489l-26 80l-215 663q-25 -88 -222 -665zM612 1489l203 319h193l-254 -319h-142z" />
<glyph unicode="&#xc2;" horiz-adv-x="1327" d="M72 0l481 1380h229l473 -1380h-178l-121 362h-583l-123 -362h-178zM332 1489l260 319h156l260 -319h-164l-174 215l-174 -215h-164zM420 504h489l-26 80l-215 663q-25 -88 -222 -665z" />
<glyph unicode="&#xc3;" horiz-adv-x="1327" d="M72 0l481 1380h229l473 -1380h-178l-121 362h-583l-123 -362h-178zM322 1618q29 61 85 103t121 42q61 0 149.5 -45t125.5 -45q69 0 110 88l101 -69q-66 -141 -203 -142q-55 0 -142 45t-120 45q-84 0 -139 -98zM420 504h489l-26 80l-215 663q-25 -88 -222 -665z" />
<glyph unicode="&#xc4;" horiz-adv-x="1327" d="M72 0l481 1380h229l473 -1380h-178l-121 362h-583l-123 -362h-178zM358 1651q0 45 31 74.5t76 29.5t74.5 -29.5t29.5 -74.5t-29.5 -76t-74.5 -31t-76 31t-31 76zM420 504h489l-26 80l-215 663q-25 -88 -222 -665zM772 1651q0 45 29.5 74.5t75 29.5t76 -29.5t30.5 -74.5 t-30.5 -76t-76 -31t-75 31t-29.5 76z" />
<glyph unicode="&#xc5;" horiz-adv-x="1327" d="M72 0l481 1380h229l473 -1380h-178l-121 362h-583l-123 -362h-178zM420 504h489l-26 80l-215 663q-25 -88 -222 -665zM453 1685.5q0 90.5 63.5 155t153.5 64.5t153.5 -64.5t63.5 -155t-63.5 -154t-153.5 -63.5t-153.5 63.5t-63.5 154zM561 1688q0 -45 32 -78t77 -33 t77.5 32.5t32.5 78t-31.5 78t-78.5 32.5q-45 0 -77 -31.5t-32 -78.5z" />
<glyph unicode="&#xc6;" horiz-adv-x="1800" d="M47 0l784 1380h859v-145h-592v-473h524v-146h-524v-471h604v-145h-768v362h-500l-209 -362h-178zM516 504h418v745q-111 -211 -373 -667z" />
<glyph unicode="&#xc7;" horiz-adv-x="1232" d="M98 696q0 311 198 507t497 196q215 0 350 -74v-170q-90 47 -162 67.5t-188 20.5q-223 0 -372 -151.5t-149 -395.5q0 -254 147.5 -405.5t391.5 -151.5q197 0 336 105v-174q-127 -86 -348 -86q-311 0 -506 191.5t-195 520.5zM557 -397q172 12 172 145q0 70 -47 148h145 q37 -51 37 -146q0 -111 -78.5 -186.5t-228.5 -79.5v119z" />
<glyph unicode="&#xc8;" horiz-adv-x="1026" d="M158 0v1380h760v-145h-594v-473h524v-146h-524v-471h604v-145h-770zM260 1806h195l200 -319h-141z" />
<glyph unicode="&#xc9;" horiz-adv-x="1026" d="M158 0v1380h760v-145h-594v-473h524v-146h-524v-471h604v-145h-770zM500 1489l202 319h193l-254 -319h-141z" />
<glyph unicode="&#xca;" horiz-adv-x="1026" d="M158 0v1380h760v-145h-594v-473h524v-146h-524v-471h604v-145h-770zM221 1489l260 319h156l260 -319h-164l-174 215l-174 -215h-164z" />
<glyph unicode="&#xcb;" horiz-adv-x="1026" d="M158 0v1380h760v-145h-594v-473h524v-146h-524v-471h604v-145h-770zM238 1649q0 45 30.5 74.5t75.5 29.5t75 -29.5t30 -74.5t-30 -76t-75 -31t-75.5 31t-30.5 76zM651 1649q0 45 30 74.5t75 29.5t75.5 -29.5t30.5 -74.5t-30.5 -76t-75.5 -31t-75 31t-30 76z" />
<glyph unicode="&#xcc;" horiz-adv-x="505" d="M-82 1808h195l200 -319h-141zM170 0v1380h166v-1380h-166z" />
<glyph unicode="&#xcd;" horiz-adv-x="505" d="M170 0v1380h166v-1380h-166zM190 1489l203 319h193l-254 -319h-142z" />
<glyph unicode="&#xce;" horiz-adv-x="505" d="M-84 1489l260 319h156l260 -319h-164l-174 215l-174 -215h-164zM170 0v1380h166v-1380h-166z" />
<glyph unicode="&#xcf;" horiz-adv-x="505" d="M-55 1651q0 45 30.5 74.5t75.5 29.5t75 -29.5t30 -74.5t-30 -76t-75 -31t-75.5 31t-30.5 76zM170 0v1380h166v-1380h-166zM358 1651q0 45 30 74.5t75 29.5t75.5 -29.5t30.5 -74.5t-30.5 -76t-75.5 -31t-75 31t-30 76z" />
<glyph unicode="&#xd0;" horiz-adv-x="1495" d="M125 623v139h174v618h410q307 0 501.5 -189.5t194.5 -490.5q0 -299 -181.5 -499.5t-506.5 -200.5h-418v623h-174zM467 145h250q131 0 232.5 45.5t161.5 124t91 176t31 209.5q0 225 -145.5 379t-380.5 154h-240v-471h358v-139h-358v-478z" />
<glyph unicode="&#xd1;" horiz-adv-x="1378" d="M158 0v1380h209l346 -581l350 -598q-8 199 -8 596v583h166v-1380h-209l-346 578q-104 174 -192.5 324.5t-125.5 215.5l-35 64q10 -213 11 -600v-582h-166zM360 1618q29 61 85.5 103t121.5 42q61 0 149.5 -45t125.5 -45q69 0 110 88l101 -69q-66 -141 -203 -142 q-55 0 -142 45t-120 45q-84 0 -139 -98z" />
<glyph unicode="&#xd2;" horiz-adv-x="1433" d="M98 696q0 326 167 518.5t452 192.5q291 0 455.5 -191.5t164.5 -519.5q0 -326 -166.5 -519t-451.5 -193q-281 0 -451 194t-170 518zM272 696q0 -256 122 -405.5t325 -149.5q211 0 326.5 147.5t115.5 407.5t-116.5 407.5t-327.5 147.5q-209 0 -327 -148.5t-118 -406.5z M410 1808h194l201 -319h-141z" />
<glyph unicode="&#xd3;" horiz-adv-x="1433" d="M98 696q0 326 167 518.5t452 192.5q291 0 455.5 -191.5t164.5 -519.5q0 -326 -166.5 -519t-451.5 -193q-281 0 -451 194t-170 518zM272 696q0 -256 122 -405.5t325 -149.5q211 0 326.5 147.5t115.5 407.5t-116.5 407.5t-327.5 147.5q-209 0 -327 -148.5t-118 -406.5z M664 1489l202 319h193l-254 -319h-141z" />
<glyph unicode="&#xd4;" horiz-adv-x="1433" d="M98 696q0 326 167 518.5t452 192.5q291 0 455.5 -191.5t164.5 -519.5q0 -326 -166.5 -519t-451.5 -193q-281 0 -451 194t-170 518zM272 696q0 -256 122 -405.5t325 -149.5q211 0 326.5 147.5t115.5 407.5t-116.5 407.5t-327.5 147.5q-209 0 -327 -148.5t-118 -406.5z M393 1489l260 319h156l260 -319h-164l-174 215l-174 -215h-164z" />
<glyph unicode="&#xd5;" horiz-adv-x="1433" d="M98 696q0 326 167 518.5t452 192.5q291 0 455.5 -191.5t164.5 -519.5q0 -326 -166.5 -519t-451.5 -193q-281 0 -451 194t-170 518zM272 696q0 -256 122 -405.5t325 -149.5q211 0 326.5 147.5t115.5 407.5t-116.5 407.5t-327.5 147.5q-209 0 -327 -148.5t-118 -406.5z M375 1620q29 61 85 103t122 42q61 0 149 -45t125 -45q70 0 111 88l100 -69q-66 -141 -203 -142q-55 0 -142 45t-120 45q-84 0 -139 -98z" />
<glyph unicode="&#xd6;" horiz-adv-x="1433" d="M98 696q0 326 167 518.5t452 192.5q291 0 455.5 -191.5t164.5 -519.5q0 -326 -166.5 -519t-451.5 -193q-281 0 -451 194t-170 518zM272 696q0 -256 122 -405.5t325 -149.5q211 0 326.5 147.5t115.5 407.5t-116.5 407.5t-327.5 147.5q-209 0 -327 -148.5t-118 -406.5z M414 1651q0 45 30.5 74.5t75.5 29.5t75 -29.5t30 -74.5t-30 -76t-75 -31t-75.5 31t-30.5 76zM827 1651q0 45 30 74.5t75 29.5t75.5 -29.5t30.5 -74.5t-30.5 -76t-75.5 -31t-75 31t-30 76z" />
<glyph unicode="&#xd7;" horiz-adv-x="1005" d="M121 973l104 102l277 -272l276 274l105 -104l-277 -275l271 -268l-105 -104l-270 268l-269 -268l-104 106l268 266z" />
<glyph unicode="&#xd8;" horiz-adv-x="1382" d="M84 -18l158 211q-158 197 -158 503q0 326 167 518.5t451 192.5q215 0 363 -107l80 107h180l-154 -207q152 -190 152 -504q0 -326 -167 -519t-449 -193q-211 0 -363 110l-84 -112h-176zM256 696q0 -217 90 -362l623 835q-106 84 -267 84q-209 0 -327.5 -148.5 t-118.5 -408.5zM442 225q111 -88 265 -88q211 0 327.5 148.5t116.5 410.5q0 224 -86 365z" />
<glyph unicode="&#xd9;" horiz-adv-x="1320" d="M156 508v872h166v-870q0 -190 91 -280.5t244 -90.5q342 0 342 381v860h166v-856q0 -266 -134 -403t-374 -137q-236 0 -368.5 134t-132.5 390zM342 1808h195l200 -319h-141z" />
<glyph unicode="&#xda;" horiz-adv-x="1320" d="M156 508v872h166v-870q0 -190 91 -280.5t244 -90.5q342 0 342 381v860h166v-856q0 -266 -134 -403t-374 -137q-236 0 -368.5 134t-132.5 390zM614 1489l203 319h193l-254 -319h-142z" />
<glyph unicode="&#xdb;" horiz-adv-x="1320" d="M156 508v872h166v-870q0 -190 91 -280.5t244 -90.5q342 0 342 381v860h166v-856q0 -266 -134 -403t-374 -137q-236 0 -368.5 134t-132.5 390zM326 1489l260 319h155l260 -319h-163l-174 215l-175 -215h-163z" />
<glyph unicode="&#xdc;" horiz-adv-x="1320" d="M156 508v872h166v-870q0 -190 91 -280.5t244 -90.5q342 0 342 381v860h166v-856q0 -266 -134 -403t-374 -137q-236 0 -368.5 134t-132.5 390zM350 1651q0 45 31 74.5t76 29.5t74.5 -29.5t29.5 -74.5t-29.5 -76t-74.5 -31t-76 31t-31 76zM764 1651q0 45 29.5 74.5 t74.5 29.5t76 -29.5t31 -74.5t-31 -76t-76 -31t-74.5 31t-29.5 76z" />
<glyph unicode="&#xdd;" horiz-adv-x="1214" d="M53 1380h193l104 -202q106 -205 170 -334t74 -156l10 -24q18 51 260 514l105 202h192l-473 -866v-514h-166v512zM571 1487l203 319h193l-254 -319h-142z" />
<glyph unicode="&#xde;" horiz-adv-x="1097" d="M158 0v1380h166v-254h180q250 0 383 -121.5t133 -322.5q0 -188 -132 -308t-368 -120h-196v-254h-166zM324 395h202q162 0 244 79t82 204q0 141 -84 224t-258 83h-186v-590z" />
<glyph unicode="&#xdf;" horiz-adv-x="1107" d="M156 0v1016q0 197 107.5 297t287.5 100q162 0 261 -92t99 -223q0 -90 -40 -159t-78.5 -117t-38.5 -89q0 -37 30.5 -72.5t73.5 -69.5t86 -74t74 -101.5t31 -134.5q0 -129 -91.5 -212t-252.5 -83q-114 -1 -177 26v156q80 -41 174 -41q86 0 136.5 40t50.5 105q0 51 -32 96.5 t-77 81t-90 72.5t-76.5 87t-31.5 112q0 55 25.5 106.5t57 83t57.5 80.5t26 103q0 76 -55.5 123t-145.5 47q-229 0 -230 -244v-1020h-161z" />
<glyph unicode="&#xe0;" horiz-adv-x="1007" d="M96 293q0 150 114 232.5t310 82.5h189v54q0 123 -55.5 185t-186.5 62q-166 0 -295 -88v162q117 72 307 72q391 0 391 -398v-657h-159v123q-80 -133 -291 -133q-145 0 -234.5 86t-89.5 217zM201 1466h194l201 -319h-141zM266 299q0 -78 51.5 -126t149.5 -48 q111 0 176.5 62.5t65.5 158.5v133h-181q-131 0 -196.5 -51t-65.5 -129z" />
<glyph unicode="&#xe1;" horiz-adv-x="1007" d="M96 293q0 150 114 232.5t310 82.5h189v54q0 123 -55.5 185t-186.5 62q-166 0 -295 -88v162q117 72 307 72q391 0 391 -398v-657h-159v123q-80 -133 -291 -133q-145 0 -234.5 86t-89.5 217zM266 299q0 -78 51.5 -126t149.5 -48q111 0 176.5 62.5t65.5 158.5v133h-181 q-131 0 -196.5 -51t-65.5 -129zM457 1147l202 319h193l-254 -319h-141z" />
<glyph unicode="&#xe2;" horiz-adv-x="1007" d="M96 293q0 150 114 232.5t310 82.5h189v54q0 123 -55.5 185t-186.5 62q-166 0 -295 -88v162q117 72 307 72q391 0 391 -398v-657h-159v123q-80 -133 -291 -133q-145 0 -234.5 86t-89.5 217zM182 1145l260 319h156l260 -319h-164l-174 215l-174 -215h-164zM266 299 q0 -78 51.5 -126t149.5 -48q111 0 176.5 62.5t65.5 158.5v133h-181q-131 0 -196.5 -51t-65.5 -129z" />
<glyph unicode="&#xe3;" horiz-adv-x="1007" d="M96 293q0 150 114 232.5t310 82.5h189v54q0 123 -55.5 185t-186.5 62q-166 0 -295 -88v162q117 72 307 72q391 0 391 -398v-657h-159v123q-80 -133 -291 -133q-145 0 -234.5 86t-89.5 217zM166 1276q29 61 85 103t122 42q61 0 149 -45t125 -45q70 0 111 88l100 -69 q-66 -141 -203 -142q-55 0 -142 45t-120 45q-84 0 -139 -98zM266 299q0 -78 51.5 -126t149.5 -48q111 0 176.5 62.5t65.5 158.5v133h-181q-131 0 -196.5 -51t-65.5 -129z" />
<glyph unicode="&#xe4;" horiz-adv-x="1007" d="M96 293q0 150 114 232.5t310 82.5h189v54q0 123 -55.5 185t-186.5 62q-166 0 -295 -88v162q117 72 307 72q391 0 391 -398v-657h-159v123q-80 -133 -291 -133q-145 0 -234.5 86t-89.5 217zM205 1302.5q0 45.5 30.5 75t75.5 29.5t75 -29.5t30 -75t-30 -76t-75 -30.5 t-75.5 30.5t-30.5 76zM266 299q0 -78 51.5 -126t149.5 -48q111 0 176.5 62.5t65.5 158.5v133h-181q-131 0 -196.5 -51t-65.5 -129zM618 1302.5q0 45.5 30 75t75 29.5t75.5 -29.5t30.5 -75t-30.5 -76t-75.5 -30.5t-75 30.5t-30 76z" />
<glyph unicode="&#xe5;" horiz-adv-x="1007" d="M96 293q0 150 114 232.5t310 82.5h189v54q0 123 -55.5 185t-186.5 62q-166 0 -295 -88v162q117 72 307 72q391 0 391 -398v-657h-159v123q-80 -133 -291 -133q-145 0 -234.5 86t-89.5 217zM266 299q0 -78 51.5 -126t149.5 -48q111 0 176.5 62.5t65.5 158.5v133h-181 q-131 0 -196.5 -51t-65.5 -129zM305 1343.5q0 90.5 63.5 155t153.5 64.5t153.5 -64.5t63.5 -155t-63.5 -154t-153.5 -63.5t-153.5 63.5t-63.5 154zM414 1346q0 -45 31.5 -78t76.5 -33t78 32.5t33 78.5q0 47 -32 78.5t-79 31.5q-45 0 -76.5 -31.5t-31.5 -78.5z" />
<glyph unicode="&#xe6;" horiz-adv-x="1677" d="M106 291q0 152 115 235.5t314 83.5h184v52q0 123 -55.5 185t-186.5 62q-164 0 -295 -86v158q119 74 301 74q264 0 338 -185q121 180 359 181q201 0 308 -126t107 -362q0 -57 -10 -112h-704q18 -154 118.5 -236t247.5 -82q170 0 275 72v-152q-117 -63 -287 -63 q-133 0 -248 57t-176 156q-39 -94 -135 -153.5t-236 -59.5q-150 0 -242 81t-92 220zM274 297q0 -76 52.5 -121t150.5 -45q102 0 172 63.5t70 167.5v113h-154q-291 0 -291 -178zM879 586h557v41q-2 135 -73 208.5t-185.5 73.5t-197.5 -82t-101 -241z" />
<glyph unicode="&#xe7;" horiz-adv-x="964" d="M88 516q0 221 144.5 381t394.5 160q133 0 237 -58v-153q-94 63 -221 63q-176 0 -281.5 -113.5t-105.5 -281.5q2 -168 102.5 -279.5t284.5 -111.5q119 0 221 67v-153q-98 -59 -241 -60q-246 0 -390.5 157t-144.5 382zM387 -397q172 12 172 145q0 70 -47 148h145 q37 -52 37 -146q0 -111 -78.5 -186.5t-228.5 -79.5v119z" />
<glyph unicode="&#xe8;" horiz-adv-x="1069" d="M88 516q0 248 129 391.5t332 143.5q195 0 309.5 -125t114.5 -355q0 -66 -10 -120h-709q18 -154 116.5 -236t258.5 -82q174 0 278 72v-152q-121 -63 -295 -63q-236 0 -380 144.5t-144 381.5zM254 586h557v41q0 129 -69.5 205.5t-192.5 76.5q-117 0 -199 -84t-96 -239z M256 1466h195l200 -319h-141z" />
<glyph unicode="&#xe9;" horiz-adv-x="1069" d="M88 516q0 248 129 391.5t332 143.5q195 0 309.5 -125t114.5 -355q0 -66 -10 -120h-709q18 -154 116.5 -236t258.5 -82q174 0 278 72v-152q-121 -63 -295 -63q-236 0 -380 144.5t-144 381.5zM254 586h557v41q0 129 -69.5 205.5t-192.5 76.5q-117 0 -199 -84t-96 -239z M514 1147l203 319h192l-254 -319h-141z" />
<glyph unicode="&#xea;" horiz-adv-x="1069" d="M88 516q0 248 129 391.5t332 143.5q195 0 309.5 -125t114.5 -355q0 -66 -10 -120h-709q18 -154 116.5 -236t258.5 -82q174 0 278 72v-152q-121 -63 -295 -63q-236 0 -380 144.5t-144 381.5zM238 1147l260 319h155l260 -319h-163l-175 215l-174 -215h-163zM254 586h557v41 q0 129 -69.5 205.5t-192.5 76.5q-117 0 -199 -84t-96 -239z" />
<glyph unicode="&#xeb;" horiz-adv-x="1069" d="M88 516q0 248 129 391.5t332 143.5q195 0 309.5 -125t114.5 -355q0 -66 -10 -120h-709q18 -154 116.5 -236t258.5 -82q174 0 278 72v-152q-121 -63 -295 -63q-236 0 -380 144.5t-144 381.5zM254 586h557v41q0 129 -69.5 205.5t-192.5 76.5q-117 0 -199 -84t-96 -239z M264 1309q0 45 31 74.5t76 29.5t74.5 -29.5t29.5 -74.5t-29.5 -76t-74.5 -31t-76 31t-31 76zM678 1309q0 45 29.5 74.5t74.5 29.5t76 -29.5t31 -74.5t-31 -76t-76 -31t-74.5 31t-29.5 76z" />
<glyph unicode="&#xec;" horiz-adv-x="477" d="M-98 1464h194l201 -319h-141zM158 0v1038h161v-1038h-161z" />
<glyph unicode="&#xed;" horiz-adv-x="477" d="M158 0v1038h161v-1038h-161zM180 1147l203 319h192l-253 -319h-142z" />
<glyph unicode="&#xee;" horiz-adv-x="477" d="M-98 1147l260 319h155l261 -319h-164l-174 215l-174 -215h-164zM158 0v1038h161v-1038h-161z" />
<glyph unicode="&#xef;" horiz-adv-x="477" d="M-74 1311q0 45 31 74.5t76 29.5t74.5 -29.5t29.5 -74.5t-29.5 -76t-74.5 -31t-76 31t-31 76zM158 0v1038h161v-1038h-161zM340 1311q0 45 29.5 74.5t74.5 29.5t76 -29.5t31 -74.5t-31 -76t-76 -31t-74.5 31t-29.5 76z" />
<glyph unicode="&#xf0;" horiz-adv-x="1058" d="M78 414q0 197 120.5 309.5t290.5 112.5q188 0 310 -140q-37 217 -183 402l-286 -148v125l209 107q-121 121 -271 198h254q82 -53 154 -127l250 127v-125l-174 -90q213 -274 213 -614q0 -279 -121 -424t-330 -145q-195 0 -315.5 127t-120.5 305zM246 410q0 -127 75.5 -203 t192.5 -76q125 0 208 95.5t89 297.5q-123 162 -309 162q-111 0 -183.5 -72.5t-72.5 -203.5z" />
<glyph unicode="&#xf1;" d="M150 0v1038h159v-180q92 195 328 195q152 0 242 -92.5t90 -245.5v-715h-162v672q0 115 -58.5 175t-152.5 60q-117 0 -202 -90t-85 -250v-567h-159zM227 1276q29 61 85.5 103t121.5 42q61 0 149.5 -45t125.5 -45q69 0 110 88l101 -69q-66 -141 -203 -142q-55 0 -142.5 45 t-119.5 45q-84 0 -140 -98z" />
<glyph unicode="&#xf2;" horiz-adv-x="1150" d="M88 512q0 231 134 386t349 155q236 0 364 -151.5t128 -385.5q0 -231 -131.5 -382.5t-360.5 -151.5q-223 0 -353 150.5t-130 379.5zM256 514q0 -162 86 -275.5t229 -113.5q156 0 240 111.5t84 277.5q0 172 -80 283.5t-244 111.5q-147 0 -231 -114.5t-84 -280.5zM256 1466 h195l200 -319h-141z" />
<glyph unicode="&#xf3;" horiz-adv-x="1150" d="M88 512q0 231 134 386t349 155q236 0 364 -151.5t128 -385.5q0 -231 -131.5 -382.5t-360.5 -151.5q-223 0 -353 150.5t-130 379.5zM256 514q0 -162 86 -275.5t229 -113.5q156 0 240 111.5t84 277.5q0 172 -80 283.5t-244 111.5q-147 0 -231 -114.5t-84 -280.5zM528 1147 l203 319h193l-254 -319h-142z" />
<glyph unicode="&#xf4;" horiz-adv-x="1150" d="M88 512q0 231 134 386t349 155q236 0 364 -151.5t128 -385.5q0 -231 -131.5 -382.5t-360.5 -151.5q-223 0 -353 150.5t-130 379.5zM244 1145l260 319h155l261 -319h-164l-174 215l-174 -215h-164zM256 514q0 -162 86 -275.5t229 -113.5q156 0 240 111.5t84 277.5 q0 172 -80 283.5t-244 111.5q-147 0 -231 -114.5t-84 -280.5z" />
<glyph unicode="&#xf5;" horiz-adv-x="1150" d="M88 512q0 231 134 386t349 155q236 0 364 -151.5t128 -385.5q0 -231 -131.5 -382.5t-360.5 -151.5q-223 0 -353 150.5t-130 379.5zM236 1276q29 61 85 103t121 42q61 0 149.5 -45t125.5 -45q69 0 110 88l101 -69q-66 -141 -203 -142q-55 0 -142 45t-120 45 q-84 0 -139 -98zM256 514q0 -162 86 -275.5t229 -113.5q156 0 240 111.5t84 277.5q0 172 -80 283.5t-244 111.5q-147 0 -231 -114.5t-84 -280.5z" />
<glyph unicode="&#xf6;" horiz-adv-x="1150" d="M88 512q0 231 134 386t349 155q236 0 364 -151.5t128 -385.5q0 -231 -131.5 -382.5t-360.5 -151.5q-223 0 -353 150.5t-130 379.5zM256 514q0 -162 86 -275.5t229 -113.5q156 0 240 111.5t84 277.5q0 172 -80 283.5t-244 111.5q-147 0 -231 -114.5t-84 -280.5zM281 1305 q0 45 30.5 74.5t75.5 29.5t75 -29.5t30 -74.5t-30 -76t-75 -31t-75.5 31t-30.5 76zM694 1305q0 45 30 74.5t75 29.5t75.5 -29.5t30.5 -74.5t-30.5 -76t-75.5 -31t-75 31t-30 76z" />
<glyph unicode="&#xf7;" horiz-adv-x="1132" d="M117 623v147h901v-147h-901zM457 332q0 43 31.5 74.5t76.5 31.5q43 0 75 -31.5t32 -74.5q0 -45 -32 -77t-75 -32q-45 0 -76.5 32t-31.5 77zM457 1061q0 45 31.5 76.5t76.5 31.5q43 0 75 -31.5t32 -76.5q0 -43 -32 -75t-75 -32q-45 0 -76.5 32t-31.5 75z" />
<glyph unicode="&#xf8;" horiz-adv-x="1153" d="M115 -18l121 161q-121 145 -121 369q0 229 135 385t350 156q154 0 268 -72l54 72h170l-121 -160q121 -150 121 -377q0 -231 -131.5 -382.5t-360.5 -151.5q-147 0 -262 71l-55 -71h-168zM272 514q1 -142 62 -242l450 598q-78 51 -186 52q-154 0 -240 -118t-86 -290z M424 168q78 -55 176 -55q162 0 248 114.5t86 286.5q0 148 -57 254z" />
<glyph unicode="&#xf9;" d="M137 324v714h162v-673q0 -113 57.5 -172.5t155.5 -59.5q129 0 206 90t77 244v571h161v-1038h-161v180q-82 -193 -326 -192q-154 0 -243 91t-89 245zM227 1464h195l201 -319h-142z" />
<glyph unicode="&#xfa;" d="M137 324v714h162v-673q0 -113 57.5 -172.5t155.5 -59.5q129 0 206 90t77 244v571h161v-1038h-161v180q-82 -193 -326 -192q-154 0 -243 91t-89 245zM492 1147l202 319h193l-254 -319h-141z" />
<glyph unicode="&#xfb;" d="M137 324v714h162v-673q0 -113 57.5 -172.5t155.5 -59.5q129 0 206 90t77 244v571h161v-1038h-161v180q-82 -193 -326 -192q-154 0 -243 91t-89 245zM213 1147l260 319h156l260 -319h-164l-174 215l-174 -215h-164z" />
<glyph unicode="&#xfc;" d="M137 324v714h162v-673q0 -113 57.5 -172.5t155.5 -59.5q129 0 206 90t77 244v571h161v-1038h-161v180q-82 -193 -326 -192q-154 0 -243 91t-89 245zM242 1305q0 45 30.5 74.5t75.5 29.5t75 -29.5t30 -74.5t-30 -76t-75 -31t-75.5 31t-30.5 76zM655 1305q0 45 30 74.5 t75 29.5t75.5 -29.5t30.5 -74.5t-30.5 -76t-75.5 -31t-75 31t-30 76z" />
<glyph unicode="&#xfd;" horiz-adv-x="1009" d="M16 1038h183l135 -342l182 -471q16 53 164 471l121 342h174l-375 -1011q-80 -211 -189.5 -297t-250.5 -86q-53 0 -86 10v145q31 -8 69 -8q207 0 293 236zM455 1147l202 319h193l-254 -319h-141z" />
<glyph unicode="&#xfe;" horiz-adv-x="1161" d="M150 -403v1851h159v-567q109 174 322 174q207 0 324.5 -150.5t117.5 -376.5q0 -240 -124 -392t-322 -152q-205 0 -318 174v-561h-159zM309 518q0 -199 92 -293t205 -94q131 0 215 103.5t84 293.5q0 170 -82 274.5t-206.5 104.5t-216 -91t-91.5 -298z" />
<glyph unicode="&#xff;" horiz-adv-x="1009" d="M16 1038h183l135 -342l182 -471q16 53 164 471l121 342h174l-375 -1011q-80 -211 -189.5 -297t-250.5 -86q-53 0 -86 10v145q31 -8 69 -8q207 0 293 236zM211 1305q0 45 30.5 74.5t75.5 29.5t75 -29.5t30 -74.5t-30 -76t-75 -31t-75.5 31t-30.5 76zM625 1305 q0 45 29.5 74.5t74.5 29.5t76 -29.5t31 -74.5t-31 -76t-76 -31t-74.5 31t-29.5 76z" />
<glyph unicode="&#x152;" horiz-adv-x="2013" d="M98 696.5q0 325.5 163 518t446 192.5q279 0 438 -195v168h760v-145h-598v-473h528v-146h-528v-471h608v-145h-770v180q-162 -197 -436 -196q-279 0 -445 193.5t-166 519zM272 696q0 -258 118 -406.5t319 -148.5q209 0 322.5 147.5t113.5 407.5t-113.5 407.5t-324.5 147.5 q-207 0 -321 -147.5t-114 -407.5z" />
<glyph unicode="&#x153;" horiz-adv-x="1826" d="M88 512q0 233 127 387t340 154q266 0 387 -209q129 207 381 207q201 0 309.5 -126t108.5 -362q0 -57 -10 -112h-707q18 -154 118.5 -236t250.5 -82q170 0 274 72v-152q-121 -63 -291 -63q-285 0 -430 213q-121 -221 -391 -221q-221 0 -344 149.5t-123 380.5zM256 514 q0 -164 79 -276.5t222 -112.5q152 0 226.5 109.5t74.5 279.5q0 395 -303 395q-147 0 -223 -112.5t-76 -282.5zM1024 586h555v45q-2 135 -71.5 206.5t-184.5 71.5t-199 -82t-100 -241z" />
<glyph unicode="&#x178;" horiz-adv-x="1214" d="M53 1380h193l104 -202q106 -205 170 -334t74 -156l10 -24q18 51 260 514l105 202h192l-473 -866v-514h-166v512zM297 1649q0 45 30.5 74.5t76 29.5t75 -29.5t29.5 -74.5t-29.5 -76t-75 -31t-76 31t-30.5 76zM711 1649q0 45 29.5 74.5t74.5 29.5t76 -29.5t31 -74.5 t-31 -76t-76 -31t-74.5 31t-29.5 76z" />
<glyph unicode="&#x2c6;" horiz-adv-x="862" d="M92 1315l260 319h156l260 -319h-164l-174 215l-174 -215h-164z" />
<glyph unicode="&#x2dc;" horiz-adv-x="862" d="M102 1415q29 61 85.5 103.5t121.5 42.5q61 0 149.5 -45.5t125.5 -45.5q69 1 110 89l101 -70q-66 -141 -203 -141q-55 0 -142.5 45t-119.5 45q-84 0 -140 -99z" />
<glyph unicode="&#x2000;" horiz-adv-x="952" />
<glyph unicode="&#x2001;" horiz-adv-x="1905" />
<glyph unicode="&#x2002;" horiz-adv-x="952" />
<glyph unicode="&#x2003;" horiz-adv-x="1905" />
<glyph unicode="&#x2004;" horiz-adv-x="635" />
<glyph unicode="&#x2005;" horiz-adv-x="476" />
<glyph unicode="&#x2006;" horiz-adv-x="317" />
<glyph unicode="&#x2007;" horiz-adv-x="317" />
<glyph unicode="&#x2008;" horiz-adv-x="238" />
<glyph unicode="&#x2009;" horiz-adv-x="381" />
<glyph unicode="&#x200a;" horiz-adv-x="105" />
<glyph unicode="&#x2010;" horiz-adv-x="712" d="M117 479v142h479v-142h-479z" />
<glyph unicode="&#x2011;" horiz-adv-x="712" d="M117 479v142h479v-142h-479z" />
<glyph unicode="&#x2012;" horiz-adv-x="712" d="M117 479v142h479v-142h-479z" />
<glyph unicode="&#x2013;" d="M117 485v136h872v-136h-872z" />
<glyph unicode="&#x2014;" horiz-adv-x="1685" d="M117 489v136h1452v-136h-1452z" />
<glyph unicode="&#x2018;" horiz-adv-x="368" d="M23 965l245 458h127l-172 -458h-200z" />
<glyph unicode="&#x2019;" horiz-adv-x="370" d="M25 965l172 458h200l-245 -458h-127z" />
<glyph unicode="&#x201a;" horiz-adv-x="370" d="M4 -252l170 459h201l-244 -459h-127z" />
<glyph unicode="&#x201c;" horiz-adv-x="663" d="M25 965l245 458h125l-172 -458h-198zM326 965l239 458h125l-170 -458h-194z" />
<glyph unicode="&#x201d;" horiz-adv-x="661" d="M25 965l170 458h192l-237 -458h-125zM317 965l175 458h198l-248 -458h-125z" />
<glyph unicode="&#x201e;" horiz-adv-x="661" d="M6 -252l168 459h195l-238 -459h-125zM299 -252l172 459h199l-246 -459h-125z" />
<glyph unicode="&#x2022;" horiz-adv-x="919" d="M188 729q0 117 77 194.5t194 77.5q115 0 193.5 -78.5t78.5 -193.5t-78 -193.5t-192 -78.5q-117 0 -195 77.5t-78 194.5z" />
<glyph unicode="&#x2026;" horiz-adv-x="1474" d="M74 104.5q0 51.5 34.5 86t86 34.5t86 -34.5t34.5 -86t-34.5 -86t-86 -34.5t-86 34.5t-34.5 86zM616 104.5q0 51.5 35 86t86 34.5t86 -34.5t35 -86t-35 -86t-86 -34.5t-86 34.5t-35 86zM1159 104.5q0 51.5 35 86t86 34.5t86 -34.5t35 -86t-35 -86t-86 -34.5t-86 34.5 t-35 86z" />
<glyph unicode="&#x202f;" horiz-adv-x="381" />
<glyph unicode="&#x2039;" horiz-adv-x="612" d="M59 518l310 332h178l-301 -332l301 -332h-178z" />
<glyph unicode="&#x203a;" horiz-adv-x="608" d="M66 186l301 332l-301 332h180l307 -332l-307 -332h-180z" />
<glyph unicode="&#x205f;" horiz-adv-x="476" />
<glyph unicode="&#x20ac;" horiz-adv-x="1208" d="M106 453v116h189q-4 61 -4 95q0 57 6 112h-191v117h211q55 217 207 338t357 121q157 0 245 -47v-160q-82 51 -227 51t-251.5 -79t-153.5 -224h407v-117h-434q-6 -51 -6 -112q0 -49 6 -95h434v-116h-412q45 -152 153 -234t247 -82q147 0 237 56v-160q-92 -49 -256 -49 q-203 0 -353 126t-202 343h-209z" />
<glyph unicode="&#x2122;" horiz-adv-x="1421" d="M4 1270v110h475v-110h-174v-594h-123v594h-178zM545 678l55 702h160l117 -331l69 -218q31 92 76 218l125 331h162l51 -702h-123l-20 317l-9 238q-20 -66 -84 -238l-114 -303h-125l-107 303l-80 238q0 -70 -12 -238l-18 -317h-123z" />
<glyph unicode="&#x25fc;" horiz-adv-x="1044" d="M0 0v1044h1044v-1044h-1044z" />
<glyph unicode="&#xfb01;" horiz-adv-x="1052" d="M61 907v131h179v97q0 152 81.5 239.5t231.5 87.5q145 0 285 -69v-150q-143 74 -279 74q-158 0 -158 -184v-95h510v-1038h-161v907h-349v-907h-161v907h-179z" />
<glyph unicode="&#xfb02;" horiz-adv-x="1044" d="M61 907v131h179v97q0 152 80.5 239.5t230.5 87.5q174 0 344 -100v-1362h-160v1284q-86 33 -166 33q-168 0 -168 -184v-95h230v-131h-230v-907h-161v907h-179z" />
<glyph unicode="&#xfb03;" horiz-adv-x="1607" d="M61 907v131h179v97q0 152 83 239.5t238 87.5q143 0 287 -71q82 72 215 71q141 0 285 -69v-150q-143 74 -279 74q-158 0 -158 -184v-95h510v-1038h-161v907h-349v-907h-161v907h-349v-907h-161v907h-179zM401 1038h349v97q0 70 20 137q-96 45 -203 45q-166 0 -166 -184 v-95z" />
<glyph unicode="&#xfb04;" horiz-adv-x="1556" d="M61 907v131h179v97q0 152 83 239.5t238 87.5q143 0 287 -71q84 72 215 71q170 0 344 -100v-1362h-162v1284q-86 33 -164 33q-168 0 -168 -184v-95h228v-131h-228v-907h-161v907h-351v-907h-161v907h-179zM401 1038h351v97q0 78 20 137q-100 45 -205 45q-166 0 -166 -184 v-95z" />
</font>
</defs>
</svg>
